Loading...
Login
Username:
Password:
[Signup]
[Recover Account]


Torrent Details For "The Boss Baby (2017) 720p HDRip x264-EVO"

The Boss Baby (2017) 720p HDRip x264-EVO

Download this torrent
Health:
Seeds: 502
Leechers: 160
Completed: 3,192 
Last Checked: 21-05-2017 20:59:25

 


Torrent Description



Watch Online at Evomovies..

Format                                   : MPEG-4
Format profile                           : Base Media / Version 2
Codec ID                                 : mp42
File size                                : 812 MiB
Duration                                 : 1h 37mn
Overall bit rate mode                    : Variable
Overall bit rate                         : 1 160 Kbps
Movie name                               : EVO
Encoded date                             : UTC 2017-05-19 08:29:31
Tagged date                              : UTC 2017-05-19 08:29:31

Video
ID                                       : 1
Format                                   : AVC
Format/Info                              : Advanced Video Codec
Format profile                           : [email protected]
Format settings, CABAC                   : Yes
Format settings, ReFrames                : 4 frames
Codec ID                                 : avc1
Codec ID/Info                            : Advanced Video Coding
Duration                                 : 1h 37mn
Bit rate                                 : 1 000 Kbps
Width                                    : 1 280 pixels
Height                                   : 542 pixels
Display aspect ratio                     : 2.35:1
Frame rate mode                          : Variable
Frame rate                               : 23.976 fps
Minimum frame rate                       : 17.341 fps
Maximum frame rate                       : 24.000 fps
Color space                              : YUV
Chroma subsampling                       : 4:2:0
Bit depth                                : 8 bits
Scan type                                : Progressive
Bits/(Pixel*Frame)                       : 0.060
Stream size                              : 696 MiB (86%)
Writing library                          : x264 core 148 r2708 86b7198
Encoded date                             : UTC 2017-05-19 08:29:31
Tagged date                              : UTC 2017-05-19 08:29:31
Color primaries                          : BT.709
Transfer characteristics                 : BT.709
Matrix coefficients                      : BT.709

Audio
ID                                       : 2
Format                                   : AAC
Format/Info                              : Advanced Audio Codec
Format profile                           : LC
Codec ID                                 : 40
Duration                                 : 1h 37mn
Bit rate mode                            : Variable
Bit rate                                 : 160 Kbps
Channel(s)                               : 2 channels
Channel positions                        : Front: L R
Sampling rate                            : 48.0 KHz
Compression mode                         : Lossy
Stream size                              : 112 MiB (14%)
Title                                    : Stereo
Language                                 : English
Encoded date                             : UTC 2017-05-19 08:29:31
Tagged date                              : UTC 2017-05-19 08:29:31











Category>:Movies > HD
Lang:English  English
Total Size:812.31 MB
Info Hash:fdcb5561a7a9bbf483d94c466a5b5c2194e0f75c
Added By:extremerules
Date Added:19-05-2017 11:09:50


Ratings:Not Yet Rated (Log in to rate it)


Tracker:
udp://tracker.coppersurfer.tk:6969/announce


File List: 


Comments

No comments still posted


Search





Loading...
You can contact TorrentsGroup at original email address: [email protected]
TorrentsGroup.com FaceBook
Page Generated In 0.012568 secs.
www.torrentsgroup.com -|- -|- RSS Feed -|- Feed Info