Loading...
Login
Username:
Password:
[Signup]
[Recover Account]



Search





Torrent Details For "[ScrewBox] (17.11.26) Jennifer Jacobs | Native - The Gift [1080p]"

[ScrewBox] (17.11.26) Jennifer Jacobs | Native - The Gift [1080p]

Download torrent
Health:
Seeds: 2
Leechers: 0
Completed:
Last Checked: 11-01-2018 04:05:25

 


  

Torrent Description

Tagi: doggy.style cowgirl brunette natural.tits reverse.cowgirl facial hd 1080p teen straight sideways outdoors standing.doggy.style roleplay cosplay stand.and.carry screwbox jennifer.jacobs
Format: mp4
Screens
http://gej-torrenty.hcore.pl/automat/a.php?opis=20232154
               Description
Jennifer Jacobs
The Native; a free spirited, wild and on the prowl teen native who survives off the land and those who wander into it. After an encounter with a pilgrim man for the very first time, she scatters into the woods, unsure of what he is or what he desires. It’s survival of the fittest, and the native girl uses her natural wildling skills to show the strange man the power of her sexual gift on Screwbox
General
Complete name                            : screwbox.17.11.26.jennifer.jacobs.native.the.gift.mp4
Format                                   : MPEG-4
Format profile                           : Base Media
Codec ID                                 : isom
File size                                : 1.57 GiB
Duration                                 : 27mn 20s
Overall bit rate mode                    : Variable
Overall bit rate                         : 8 223 Kbps
Writing application                      : Lavf57.56.101
Video
ID                                       : 1
Format                                   : AVC
Format/Info                              : Advanced Video Codec
Format profile                           : [email protected]
Format settings, CABAC                   : No
Format settings, ReFrames                : 3 frames
Codec ID                                 : avc1
Codec ID/Info                            : Advanced Video Coding
Duration                                 : 27mn 20s
Bit rate                                 : 8 000 Kbps
Width                                    : 1 920 pixels
Height                                   : 1 080 pixels
Display aspect ratio                     : 16:9
Frame rate mode                          : Constant
Frame rate                               : 30.000 fps
Color space                              : YUV
Chroma subsampling                       : 4:2:0
Bit depth                                : 8 bits
Scan type                                : Progressive
Bits/(Pixel*Frame)                       : 0.129
Stream size                              : 1.51 GiB (96%)
Writing library                          : x264 core 148 r333 90a61ec
Encoding settings                        : cabac=0 / ref=3 / deblock=1:0:0 / analyse=0x1:0x111 / me=hex / subme=7 / psy=1 / psy_rd=1.00:0.00 / mixed_ref=1 / me_range=16 / chroma_me=1 / trellis=1 / 8x8dct=0 / cqm=0 / deadzone=21,11 / fast_pskip=1 / chroma_qp_offset=-2 / threads=34 / lookahead_threads=5 / sliced_threads=0 / nr=0 / decimate=1 / interlaced=0 / bluray_compat=0 / constrained_intra=0 / bframes=0 / weightp=0 / keyint=250 / keyint_min=25 / scenecut=40 / intra_refresh=0 / rc_lookahead=40 / rc=abr / mbtree=1 / bitrate=8000 / ratetol=1.0 / qcomp=0.60 / qpmin=0 / qpmax=69 / qpstep=4 / ip_ratio=1.40 / aq=1:1.00
Language                                 : English
Audio
ID                                       : 2
Format                                   : AAC
Format/Info                              : Advanced Audio Codec
Format profile                           : LC
Codec ID                                 : 40
Duration                                 : 27mn 20s
Bit rate mode                            : Variable
Bit rate                                 : 288 Kbps
Maximum bit rate                         : 320 Kbps
Channel(s)                               : 2 channels
Channel positions                        : Front: L R
Sampling rate                            : 44.1 KHz
Compression mode                         : Lossy
Stream size                              : 56.2 MiB (3%)
Language                                 : English
       
Category>:Adult > HD
Lang:Unknown/NA
Total Size:1.57 GB
Info Hash:685be0677b670deefb01945399ea23edcd2f1045
Added By:frbqiyxe
Date Added:11-01-2018 04:05:25


Ratings:Not Yet Rated (Log in to rate it)


Tracker:
http://tracker.vanitycore.co:6969/announce

This Torrent also has backup trackers
URLSeedersLeechersCompleted
http://tracker.vanitycore.co:6969/announce000
http://agusiq-torrents.pl:6969/announce000
http://comenda3.altervista.org/announce/685be0677b670deefb01945399ea23edcd2f1045.ip000
http://ger87.000webhostapp.com/automat/anuanPB.php000


File List: 


Comments

No comments still posted

Bitcoin Donate: 19iHZVxSjDgjVnZti4zTAPN32J6YhD3C1z
TorrentsGroup.com FaceBook
Page Generated In 0.006002 secs.
www.torrentsgroup.com -|- -|- RSS Feed -|- Feed Info