Login
Username:
Password:
[Signup]
[Recover Account]



Search





Torrent Details For "[Analized] (18.01.09) Riley Reid - Gaping [1080p]"

[Analized] (18.01.09) Riley Reid - Gaping [1080p]

Download torrent
Health:
Seeds: 2
Leechers: 0
Completed:
Last Checked: 12-01-2018 05:35:15

 


  

Torrent Description

Tagi: blowjob doggy.style anal missionary 1080p cunnilingus deepthroat hairy.pussy squirting standing.doggy.style anal.doggy.style anal.reverse.cowgirl rough anal.missionary riley.reid fullhd james.deen
Format: mp4
Screens
http://gej-torrenty.hcore.pl/automat/a.php?opis=20236965
               Description
Riley Reid & James Deen
Riley Reid loves to show off her sexy body. She doesn't need to do much to turn men on. With a look over her shoulder and a shake of her nice ass, everyone goes crazy for Riley Reid. Today is Riley's ANALIZED debut. This sexy porn star is ready for the big leagues and wants to be treated like an anal whore. A big cock is shoved deep into her ass, shocking the brunette beauty. With her make up running down her face, Riley warms up to the sensation and soon is cumming from her asshole while being fucked rough and hard. Riley Reid squirts as she cums. Her pretty face is used as a mop to clean up her mess while simultaneously being anal fucked. Riley wants to be a real anal whore, and begs to be gaped. The more her ass if fucked the more destroyed her hole becomes. Holding her gaping anal cavity wide, Riley takes multiple loads of cum deep in her swollen and fucked hole. She leaves smiling and complete.
General
Complete name                            : analized.18.01.09.riley.reid.gaping.mp4
Format                                   : MPEG-4
Format profile                           : Base Media
Codec ID                                 : isom (isom/iso2/avc1/mp41)
File size                                : 3.25 GiB
Duration                                 : 45 min 0 s
Overall bit rate mode                    : Variable
Overall bit rate                         : 10.4 Mb/s
Writing application                      : Lavf57.56.101
Video
ID                                       : 1
Format                                   : AVC
Format/Info                              : Advanced Video Codec
Format profile                           : [email protected]
Format settings, CABAC                   : No
Format settings, RefFrames               : 3 frames
Codec ID                                 : avc1
Codec ID/Info                            : Advanced Video Coding
Duration                                 : 45 min 0 s
Bit rate                                 : 10 000 kb/s
Width                                    : 1 920 pixels
Height                                   : 1 080 pixels
Display aspect ratio                     : 16:9
Frame rate mode                          : Constant
Frame rate                               : 30.000 FPS
Color space                              : YUV
Chroma subsampling                       : 4:2:0
Bit depth                                : 8 bits
Scan type                                : Progressive
Bits/(Pixel*Frame)                       : 0.161
Stream size                              : 3.15 GiB (97%)
Writing library                          : x264 core 148 r333 90a61ec
Encoding settings                        : cabac=0 / ref=3 / deblock=1:-1:-1 / analyse=0x1:0x111 / me=hex / subme=7 / psy=1 / psy_rd=1.00:0.15 / mixed_ref=1 / me_range=16 / chroma_me=1 / trellis=1 / 8x8dct=0 / cqm=0 / deadzone=21,11 / fast_pskip=1 / chroma_qp_offset=-3 / threads=34 / lookahead_threads=5 / sliced_threads=0 / nr=0 / decimate=1 / interlaced=0 / bluray_compat=0 / constrained_intra=0 / bframes=0 / weightp=0 / keyint=250 / keyint_min=25 / scenecut=40 / intra_refresh=0 / rc_lookahead=40 / rc=abr / mbtree=1 / bitrate=10000 / ratetol=1.0 / qcomp=0.60 / qpmin=0 / qpmax=69 / qpstep=4 / ip_ratio=1.40 / aq=1:1.00
Language                                 : English
Color range                              : Limited
Color primaries                          : BT.709
Transfer characteristics                 : BT.709
Matrix coefficients                      : BT.709
Audio
ID                                       : 2
Format                                   : AAC
Format/Info                              : Advanced Audio Codec
Format profile                           : LC
Codec ID                                 : 40
Duration                                 : 45 min 0 s
Duration_LastFrame                       : -11 ms
Bit rate mode                            : Variable
Bit rate                                 : 314 kb/s
Maximum bit rate                         : 320 kb/s
Channel(s)                               : 2 channels
Channel positions                        : Front: L R
Sampling rate                            : 44.1 kHz
Frame rate                               : 43.066 FPS (1024 SPF)
Compression mode                         : Lossy
Stream size                              : 101 MiB (3%)
Language                                 : English
Default                                  : Yes
Alternate group                          : 1
       
Category>:Adult > HD
Lang:Unknown/NA
Total Size:3.25 GB
Info Hash:3610f03b97d031164f9fc4090a2f4c9a91a80977
Added By:frbqiyxe
Date Added:12-01-2018 05:35:15


Ratings:Not Yet Rated (Log in to rate it)


Tracker:
http://tracker.vanitycore.co:6969/announce

This Torrent also has backup trackers
URLSeedersLeechersCompleted
http://tracker.vanitycore.co:6969/announce000
http://agusiq-torrents.pl:6969/announce000
http://comenda3.altervista.org/announce/3610f03b97d031164f9fc4090a2f4c9a91a80977.ip000
http://ger87.000webhostapp.com/automat/anuanPB.php000


File List: 


Comments

No comments still posted

Bitcoin Donate: 19iHZVxSjDgjVnZti4zTAPN32J6YhD3C1z
TorrentsGroup.com FaceBook
Page Generated In 0.005516 secs.
www.torrentsgroup.com -|- -|- RSS Feed -|- Feed Info